Looney Tunes Short Fur Of Flying (2010) [1080p.bluray.h264.AC-3][ENG][HF/FS][[email protected]]

 

Looney Tunes Short Fur Of Flying (2010)
[1080p.bluray.h264.AC-3][ENG][HF/FS][[email protected]]

[animacja]


Produkcja: USA
Rok: 2010
Gatunek: Animacja

Kolejna bajka opowiadajaca przygody kojota i strusia pedziwiatra.
Moze teraz sie uda?

Całe 3 minuty dobrej zabawy!

obsada: struś pędziwiatr i kojot

General
Format : Matroska
File size : 190 MiB
Duration : 3mn 4s
Overall bit rate : 8 624 Kbps
Video #1
ID : 1
Format : AVC
Format/Info : Advanced Video Codec
Format profile : [email protected]
Format settings, CABAC : Yes
Format settings, ReFrames : 5 frames
Muxing mode : Container [email protected]
Codec ID : V_MPEG4/ISO/AVC
Duration : 3mn 4s
Nominal bit rate : 8 000 Kbps
Width : 1 920 pixels
Height : 800 pixels
Display aspect ratio : 2.40:1
Frame rate : 23.976 fps
Resolution : 24 bits
Colorimetry : 4:2:0
Scan type : Progressive
Bits/(Pixel*Frame) : 0.212
Stream size : 172 MiB (90%)

Audio #2
ID : 2
Format : AC-3
Format/Info : Audio Coding 3
Codec ID : A_AC3
Duration : 3mn 4s
Bit rate mode : Constant
Bit rate : 640 Kbps
Channel(s) : 6 channels
Channel positions : Front: L C R, Surround: L R, LFE
Sampling rate : 48.0 KHz
Stream size : 14.1 MiB (7%)
Title : AC3 5.1 @ 640 Kbps

Linki z hostingów plików:

Kliknij, aby zobaczyć linki
Screeny
looney_tunes_short_fur_of_flying_2010br_1080p_bluray_h264_ac-3enghffspczos
 


Aby dodać komentarz należy się zalogować

Logowanie logowanie

Twoja ocena
Podobne torrenty
Looney Tunes Rabbits Run *2015* [DVDRip] [XviD-EVO] [ENG]    Raczkujące melodyjki - Baby Looney Tunes [S01E03] [TVRip][DivX][Lektor PL][TC]    Looney Tunes Collection: - The Road Runner Show *1948-57* [DVDRip XviD] [Dub PL]    Raczkujące melodyjki - Baby Looney Tunes [S01E09] [TVRip][DivX][Lektor PL][TC]

Looney Tunes Rabbits Run *2015* [DVDRip] [XviD-EVO] [ENG]

Raczkujące melodyjki - Baby Looney Tunes [S01E03]            [TVRip][DivX][Lektor PL][TC]

Looney Tunes Collection:  - The Road Runner Show *1948-57* [DVDRip.XviD] [Dub PL]

Raczkujące melodyjki - Baby Looney Tunes [S01E09]                 [TVRip][DivX][Lektor PL][TC]




Shoutbox (zawartość shoutboxa widoczna dla zalogowanych użytkowników)


Żaden z plików nie znajduje się na serwerze. Torrenty są własnością użytkowników. Administrator serwisu nie może ponieść konsekwencji za to co użytkownicy wstawiają, lub za to co czynią na stronie. Nie możesz używać tego serwisu do rozpowszechniania lub ściągania materiałów do których nie masz odpowiednich praw lub licencji. Użytkownicy odpowiedzialni są za przestrzeganie tych zasad. profil torrenty.ga